+ ShareSpark.net »  :::: Dubbed Zone (Dubbed English in Hindi) » TV Shows (Dubbed in Hindi)
|- A Series of Unfortunate Events Season 1 Complete WEB-DL Hindi+English DD 5.0 - ESub-Ranvijay


100% Bill Offer

A Series of Unfortunate Events Season 1 Complete WEB-DL Hindi+English DD 5.0 - ESub-Ranvijay

0 Members and 1 Guest are viewing this topic.

October 01, 2017, 10:39:31 PM
  • Global Moderator
  • Legend Member
  • *****
  • Topic Author
  • Thank You: 11373
  • Reputation: 2284
  • Activity:
    100%
  • Country: in
  • Posts: 5510
  • Topics: 4535
  • Join Date: Jan 2014
  • ıllıllı ѕмoĸιng ιѕ good ғor нealтн ıllıllı :)
A Series of Unfortunate Events Season 1 Complete WEB-DL Hindi+English DD 5.0 - ESub-Ranvijay





Quote
Format                                   : Matroska
Format version                           : Version 4 / Version 2
File size                                : 1.34 GiB
Duration                                 : 49 min 42 s
Overall bit rate                         : 3 859 kb/s

Video
ID                                       : 1
Format                                   : AVC
Format/Info                              : Advanced Video Codec
Format profile                           : [email protected]
Format settings, CABAC                   : Yes
Format settings, RefFrames               : 4 frames
Codec ID                                 : V_MPEG4/ISO/AVC
Duration                                 : 48 min 49 s
Bit rate                                 : 3 152 kb/s
Width                                    : 1 280 pixels
Height                                   : 640 pixels
Display aspect ratio                     : 2.000
Frame rate mode                          : Constant
Frame rate                               : 24.000 FPS
Color space                              : YUV
Chroma subsampling                       : 4:2:0
Bit depth                                : 8 bits
Scan type                                : Progressive
Bits/(Pixel*Frame)                       : 0.160
Stream size                              : 1.07 GiB (80%)
Language                                 : English
Default                                  : Yes
Forced                                   : No

Audio #1
ID                                       : 2
Format                                   : AC-3
Format/Info                              : Audio Coding 3
Format settings, Endianness              : Big
Codec ID                                 : A_AC3
Duration                                 : 48 min 49 s
Bit rate mode                            : Constant
Bit rate                                 : 384 kb/s
Channel(s)                               : 6 channels
Channel positions                        : Front: L C R, Side: L R, LFE
Sampling rate                            : 48.0 kHz
Frame rate                               : 31.250 FPS (1536 SPF)
Bit depth                                : 16 bits
Compression mode                         : Lossy
Stream size                              : 134 MiB (10%)
Language                                 : English
Service kind                             : Complete Main
Default                                  : No
Forced                                   : No

Audio #2
ID                                       : 3
Format                                   : AC-3
Format/Info                              : Audio Coding 3
Format settings, Endianness              : Big
Codec ID                                 : A_AC3
Duration                                 : 49 min 42 s
Bit rate mode                            : Constant
Bit rate                                 : 384 kb/s
Channel(s)                               : 6 channels
Channel positions                        : Front: L C R, Side: L R, LFE
Sampling rate                            : 48.0 kHz
Frame rate                               : 31.250 FPS (1536 SPF)
Bit depth                                : 16 bits
Compression mode                         : Lossy
Stream size                              : 137 MiB (10%)
Language                                 : Hindi
Service kind                             : Complete Main
Default                                  : Yes
Forced                                   : No

Text
ID                                       : 4
Format                                   : UTF-8
Codec ID                                 : S_TEXT/UTF8
Codec ID/Info                            : UTF-8 Plain Text
Duration                                 : 45 min 39 s
Bit rate                                 : 82 b/s
Count of elements                        : 696
Stream size                              : 27.6 KiB (0%)
Default                                  : Yes
Forced                                   : No


















:download:

Episode 1

Quote







Episode 2

Quote







Episode 3

Quote







Episode 4

Quote







Episode 5

Quote







Episode 6

Quote








Episode 7

Quote








Episode 8

Quote









File Leeched & Uploaded From




Don't walk as you are king, walk as you don't care who the king is....!!
Never argue with an idiot. They drag you down to their level and then beat you with experience?

Share this topic on FacebookShare this topic on GoogleShare this topic on MySpaceShare this topic on TwitterShare this topic on Yahoo

« Last Edit: October 02, 2017, 07:47:34 AM by тнє ωαll 81317 »



Don't walk as you are king, walk as you don't care who the king is....!!

Thanks given by:


October 01, 2017, 11:07:35 PM
Reply #1
  • Elite Moderator
  • Legend Member
  • ****
  • Thank You: 2000
  • Reputation: 287
  • Activity:
    0%
  • Country: in
  • Posts: 3722
  • Topics: 2854
  • Join Date: Sep 2016
  • (: EnJOy D LiFe :)

October 02, 2017, 05:34:49 AM
Reply #2
  • ♫♫♣ B૦ՐՈ T૦ H૯Նƿ ♣♫♫
  • Global Moderator
  • Legend Member
  • *****
  • Thank You: 1104
  • Reputation: 725
  • Activity:
    0%
  • Country: dk
  • Posts: 2712
  • Topics: 1192
  • Join Date: Jan 2013
  • ♠§§ Dσп'т Tαʟκ Jυƨт Acт §§ Dσп'т Sαч Jυƨт Sнσш §§♠

If U like any post, then say thanks 2 d uploader by posting in his topic, adding thanks & reputes 2 him.:)

August 20, 2018, 06:53:10 PM
Reply #3
  • Semi Newbie
  • **
  • Thank You: 0
  • Reputation: 0
  • Activity:
    0.6%
  • Country: in
  • Posts: 12
  • Topics: 0
  • Join Date: Dec 2017
  • ShareSpark Member
 :race: Brother can you kindly re upload  all the links are dead.... ur torrent also has no seeds..... either any torrent or direct links
« Last Edit: August 20, 2018, 06:55:58 PM by erosnyx626 »

October 11, 2018, 08:51:46 PM
Reply #4
  • Semi Newbie
  • **
  • Thank You: 0
  • Reputation: 0
  • Activity:
    0.8%
  • Country: in
  • Posts: 22
  • Topics: 0
  • Join Date: Dec 2014
  • ShareSpark Member

Tags: Reupload 
 

Related Topics





Back to top