+ ShareSpark.net »  :::: Bollywood Zone » Bollywood Movies (Original Rips) » High Resolution Movies
|- 23rd March 1931 Shaheed (2002) 1080p Web-Dl AVC AAC [XMR] - 5.81 GB


100% DTH Offer

23rd March 1931 Shaheed (2002) 1080p Web-Dl AVC AAC [XMR] - 5.81 GB

0 Members and 3 Guests are viewing this topic.

May 26, 2017, 08:26:30 PM
  • Global Moderator
  • Legend Member
  • *****
  • Topic Author
  • Thank You: 11373
  • Reputation: 2284
  • Activity:
    100%
  • Country: in
  • Posts: 5511
  • Topics: 4536
  • Join Date: Jan 2014
  • ıllıllı ѕмoĸιng ιѕ good ғor нealтн ıllıllı :)
23rd March 1931 Shaheed (2002) 1080p Web-Dl AVC AAC [XMR] - 5.81 GB




Format                      : MPEG-4
Format profile              : Base Media
Codec ID                    : isom (isom/iso2/avc1/mp41)
File size                   : 5.81 GiB
Duration                    : 3 h 2 min
Overall bit rate mode       : Variable
Overall bit rate            : 4 562 kb/s
Writing application         : Lavf57.70.100

Video
ID                          : 1
Format                      : AVC
Format/Info                 : Advanced Video Codec
Format profile              : [email protected]
Format settings, CABAC      : Yes
Format settings, ReFrames   : 1 frame
Format settings, GOP        : M=1, N=25
Codec ID                    : avc1
Codec ID/Info               : Advanced Video Coding
Duration                    : 3 h 2 min
Bit rate mode               : Constant
Bit rate                    : 4 500 kb/s
Width                       : 1 920 pixels
Height                      : 1 080 pixels
Display aspect ratio        : 16:9
Frame rate mode             : Variable
Frame rate                  : 24.973 FPS
Minimum frame rate          : 0.166 FPS
Maximum frame rate          : 25.000 FPS
Original frame rate         : 25.000 FPS
Color space                 : YUV
Chroma subsampling          : 4:2:0
Bit depth                   : 8 bits
Scan type                   : Progressive
Bits/(Pixel*Frame)          : 0.087
Stream size                 : 5.73 GiB (99%)

Audio
ID                          : 2
Format                      : AAC
Format/Info                 : Advanced Audio Codec
Format profile              : LC
Codec ID                    : 40
Duration                    : 3 h 2 min
Bit rate mode               : Variable
Bit rate                    : 61.3 kb/s
Maximum bit rate            : 257 kb/s
Channel(s)                  : 2 channels
Channel positions           : Front: L R
Sampling rate               : 48.0 kHz
Frame rate                  : 46.875 FPS (1024 spf)
Compression mode            : Lossy
Stream size                 : 80.0 MiB (1%)
Default                     : Yes
Alternate group             : 1


:ss:











:download:

Quote







Don't walk as you are king, walk as you don't care who the king is....!!
Never argue with an idiot. They drag you down to their level and then beat you with experience?

Share this topic on FacebookShare this topic on GoogleShare this topic on MySpaceShare this topic on TwitterShare this topic on Yahoo




Don't walk as you are king, walk as you don't care who the king is....!!

December 04, 2018, 07:26:17 AM
Reply #1
  • Newbie
  • **
  • Thank You: 0
  • Reputation: 0
  • Activity:
    0.4%
  • Country: in
  • Posts: 2
  • Topics: 0
  • Join Date: Oct 2018
  • ShareSpark Member

December 04, 2018, 08:51:44 AM
Reply #2
  • *****************
  • Head Admin
  • Legend Member
  • *****
  • Thank You: 6903
  • Reputation: 2991
  • Activity:
    82.6%
  • Country: in
  • Posts: 19037
  • Topics: 11071
  • Join Date: Mar 2012
  • The Time Is Now......

December 06, 2018, 07:19:09 AM
Reply #3
  • Newbie
  • **
  • Thank You: 0
  • Reputation: 0
  • Activity:
    0.4%
  • Country: in
  • Posts: 2
  • Topics: 0
  • Join Date: Oct 2018
  • ShareSpark Member
Bhai iska link acefile me upload kar do please

Tags:
 

Related Topics





Back to top