ShareSpark.net

:::: Bollywood Zone => Bollywood Movies (Original Rips) => High Resolution Movies => Topic started by: Rάήνίјάч1234 on May 26, 2017, 08:26:30 PM

Title: 23rd March 1931 Shaheed (2002) 1080p Web-Dl AVC AAC [XMR] - 5.81 GB
Post by: Rάήνίјάч1234 on May 26, 2017, 08:26:30 PM
23rd March 1931 Shaheed (2002) 1080p Web-Dl AVC AAC [XMR] - 5.81 GB

(http://i.imgur.com/7bQ8ZRS.png)
(http://itspic.com/images/2017/05/26/PCTV-1000101218-hd.jpg)

Format                      : MPEG-4
Format profile              : Base Media
Codec ID                    : isom (isom/iso2/avc1/mp41)
File size                   : 5.81 GiB
Duration                    : 3 h 2 min
Overall bit rate mode       : Variable
Overall bit rate            : 4 562 kb/s
Writing application         : Lavf57.70.100

Video
ID                          : 1
Format                      : AVC
Format/Info                 : Advanced Video Codec
Format profile              : [email protected]
Format settings, CABAC      : Yes
Format settings, ReFrames   : 1 frame
Format settings, GOP        : M=1, N=25
Codec ID                    : avc1
Codec ID/Info               : Advanced Video Coding
Duration                    : 3 h 2 min
Bit rate mode               : Constant
Bit rate                    : 4 500 kb/s
Width                       : 1 920 pixels
Height                      : 1 080 pixels
Display aspect ratio        : 16:9
Frame rate mode             : Variable
Frame rate                  : 24.973 FPS
Minimum frame rate          : 0.166 FPS
Maximum frame rate          : 25.000 FPS
Original frame rate         : 25.000 FPS
Color space                 : YUV
Chroma subsampling          : 4:2:0
Bit depth                   : 8 bits
Scan type                   : Progressive
Bits/(Pixel*Frame)          : 0.087
Stream size                 : 5.73 GiB (99%)

Audio
ID                          : 2
Format                      : AAC
Format/Info                 : Advanced Audio Codec
Format profile              : LC
Codec ID                    : 40
Duration                    : 3 h 2 min
Bit rate mode               : Variable
Bit rate                    : 61.3 kb/s
Maximum bit rate            : 257 kb/s
Channel(s)                  : 2 channels
Channel positions           : Front: L R
Sampling rate               : 48.0 kHz
Frame rate                  : 46.875 FPS (1024 spf)
Compression mode            : Lossy
Stream size                 : 80.0 MiB (1%)
Default                     : Yes
Alternate group             : 1


:ss:

(http://extraimage.net/images/2017/05/26/5eb2c535a396fdcf663011ab876df56c.png)
(http://extraimage.net/images/2017/05/26/f55137a52c2cfe8cb20e715f79cb64b7.png)
(http://extraimage.net/images/2017/05/26/f87184fc46b2fff942e49f5ee8143e32.png)
(http://extraimage.net/images/2017/05/26/68ec9535783fc05ed90c6a563ca4e666.png)
(http://extraimage.net/images/2017/05/26/8a7585dd3201ad7261f2be42e7c76454.png)
(http://extraimage.net/images/2017/05/26/e7e708d9badf8db6b90147fef55266bd.png)
(http://extraimage.net/images/2017/05/26/fdade6a5fa8f66228be3096d6c29f635.png)
(http://extraimage.net/images/2017/05/26/e93884381609c435b28e687eba2ea9d7.png)
(http://extraimage.net/images/2017/05/26/295c10d83931845f1df26fa2ce516f91.png)

:download:

Quote
http://userscloud.com/wrs9oox8vstx
http://1fichier.com/?npjdap4dgj
http://filescdn.com/axs3fcpjvhhj
http://openload.co/f/KEgKlD70YjQ/23rd_March_1931_Shaheed_%282002%29_1080p_Web-Dl_AVC_AAC_%5BXMR%5D.mp4

(http://extraimage.net/images/2017/03/23/ac408822fa208007a0cb5a1fb7e015de.png)
(http://extraimago.com/images/2016/10/24/a5888e337704f3547936bfd907ed4eba.png)
(http://2.bp.blogspot.com/-pyai9pasbqs/UspmWaRin0I/AAAAAAAAAP8/Rl3PDLc2VmE/s1600/6fe360de5335267cd2a98ca7b88b21966ec7ceb7_t.gif)
Don't walk as you are king, walk as you don't care who the king is....!!
Never argue with an idiot. They drag you down to their level and then beat you with experience?
Title: Re: 23rd March 1931 Shaheed (2002) 1080p Web-Dl AVC AAC [XMR] - 5.81 GB
Post by: maninder sehrawat on December 04, 2018, 07:26:17 AM
Bhai koi link update kardo iska please bro
Title: Re: 23rd March 1931 Shaheed (2002) 1080p Web-Dl AVC AAC [XMR] - 5.81 GB
Post by: -Ð@Rk.ÐèVi£- on December 04, 2018, 08:51:44 AM
Bhai koi link update kardo iska please bro

Source dead completely buddy
Title: Re: 23rd March 1931 Shaheed (2002) 1080p Web-Dl AVC AAC [XMR] - 5.81 GB
Post by: maninder sehrawat on December 06, 2018, 07:19:09 AM
Bhai iska link acefile me upload kar do please